<?xml version="1.0" standalone="no"?>
<!DOCTYPE svg PUBLIC "-//W3C//DTD SVG 1.1//EN" "http://www.w3.org/Graphics/SVG/1.1/DTD/svg11.dtd" >
<svg xmlns="http://www.w3.org/2000/svg">
<metadata>
This is a custom SVG webfont generated by Font Squirrel.
Copyright   : Copyright c 2012 by John Caserta All rights reserved
Designer    : John Caserta
Foundry     : John Caserta
Foundry URL : httpthedesignofficeorg
</metadata>
<defs>
<font id="ModernPictogramsNormal" horiz-adv-x="1122" >
<font-face units-per-em="2048" ascent="1536" descent="-512" />
<missing-glyph horiz-adv-x="614" />
<glyph unicode=" "  horiz-adv-x="614" />
<glyph unicode="&#x09;" horiz-adv-x="614" />
<glyph unicode="&#xa0;" horiz-adv-x="614" />
<glyph unicode="!" horiz-adv-x="1624" d="M61 147q0 41 21 74l604 1045q41 74 127 73q84 0 127 -73l604 -1045q18 -33 19 -74q0 -63 -43 -105t-105 -42h-1204q-61 0 -105.5 43t-44.5 104zM692 266q0 -51 36 -86t87 -35t87 35t36 86q0 53 -36 89t-87 36q-53 0 -88 -36t-35 -89zM705 506h219v489h-219v-489z" />
<glyph unicode="&#x22;" horiz-adv-x="2465" />
<glyph unicode="#" horiz-adv-x="2119" d="M129 580q125 0 245 38.5t220 101t198.5 138.5t198 151.5t199.5 138t220 102.5t245 40q59 -131 171.5 -371.5t147.5 -314.5q-168 0 -326.5 -68.5t-289.5 -168t-262 -200.5t-299 -180t-348 -93q-53 115 -160 343t-160 343zM326 471q35 -74 104.5 -223.5t104.5 -222.5 q215 41 462 223q-115 45 -174 170q-53 117 -32 274q-254 -184 -465 -221zM526 313q4 -19 13 -37q45 16 61 25q-4 12 -4 14q-23 -2 -70 -2zM537 365q6 -2 19 -7.5t23.5 -9.5t18.5 -8q4 4 8 16q-8 6 -25.5 20.5t-25.5 20.5q-12 -12 -18 -32zM573 231q21 -16 35 -18 q2 6 10.5 26.5t12.5 30.5q-8 4 -15 9q-6 -8 -20 -23.5t-23 -24.5zM598 432q4 -6 8 -15t6 -16q-2 6 -6 15.5t-8 15.5q4 -10 14.5 -30.5t14.5 -30.5q2 2 16 6q0 12 -4 32.5t-4 32.5q-12 -2 -37 -10zM655 268q2 -18 11 -65q24 4 34 10q-4 10 -14 29.5t-14 29.5q-8 -4 -17 -4z M668 375q2 -2 7 -4t7 -4q6 10 19.5 28.5t19.5 26.5q-16 14 -31 16q-16 -41 -22 -63zM692 289q41 -31 53 -39q6 10 19 35q-39 10 -64 20zM698 346q4 -4 4 -16q35 6 64 14q-4 25 -8 37h-2q-25 -16 -58 -33v-2zM1104 934q111 -39 174 -168q55 -123 33 -274q248 182 467 221 q-41 84 -112 236.5t-97 209.5q-221 -41 -465 -225zM1327 899q12 -27 34.5 -78t35.5 -76q19 13 33 19q-14 37 -72 154q-20 -10 -31 -19zM1397 938q41 -84 71 -152q6 2 17.5 7.5t15.5 7.5l-74 153q-6 -4 -15 -8t-15 -8zM1468 971q39 -76 72 -150q19 7 33 13q-8 20 -34 71 t-38 80q-6 -2 -17 -7t-16 -7z" />
<glyph unicode="$" horiz-adv-x="1316" d="M123 483q0 164 89 297t234 195l-133 293q0 41 45 41h600q45 0 46 -41l-134 -293q145 -61 234.5 -194.5t89.5 -297.5q0 -223 -156.5 -379.5t-378.5 -156.5q-223 0 -379.5 156.5t-156.5 379.5zM348 240l10 -7q14 8 21 9q10 0 14 -4q119 -59 225 -66v-31q0 -25 -26 -32v-15 h129v15q-33 8 -33 32v31q119 6 189.5 62.5t70.5 144.5q0 166 -243 188h-17v144q60 -4 115 -33q37 -20 48 -32.5t11 -29.5l12 -6l74 148l-10 8q-16 -12 -23 -12q-12 0 -20 6q-147 57 -207 57v29q0 23 33 31v14h-129v-14q27 -8 26 -31v-25q-119 -4 -184 -57t-65 -143.5 t55 -129t194 -51.5v-157q-90 8 -140 38.5t-50 65.5l-12 6zM496 637q0 21 16 37q27 33 106 39v-140q-70 6 -96 17.5t-26 46.5zM688 279v149q78 -6 102.5 -16.5t24.5 -40.5q0 -74 -127 -92z" />
<glyph unicode="%" horiz-adv-x="1699" d="M184 555l201 203l322 -320l688 750l223 -203l-877 -983z" />
<glyph unicode="&#x26;" horiz-adv-x="1452" />
<glyph unicode="'" horiz-adv-x="1568" d="M164 362v515l362 364h514l365 -364v-515l-365 -362h-514zM219 385l330 -330h469l332 330v469l-332 332h-469l-330 -332v-469zM289 414v411l291 291h409l291 -291v-411l-291 -289h-409z" />
<glyph unicode="(" horiz-adv-x="1724" d="M57 981l11 16q115 -74 129 -82q12 -10 30.5 -15t50 7.5t58.5 53.5q27 39 28 75.5t-10.5 53t-23.5 24.5l-129 84l10 16q14 8 39.5 17.5t94.5 9.5t124 -33q0 -2 8 -8t19.5 -13t15.5 -11q94 -84 66 -218q-8 -43 1 -66.5t46 -64.5l170 -170l202 207l148 -151l-195 -199 l361 -324q39 -39 38 -92t-40 -94q-39 -39 -93.5 -38t-93.5 40l-329 348l-308 -370q-23 -23 -55.5 -23t-54.5 23l-80 82q-23 20 -23 54t23 56l352 328l-170 164q-76 74 -133 55q-86 -31 -168 22q-57 37 -87 95.5t-31 99.5zM748 1221q106 27 199 27.5t146.5 -10.5t108.5 -46 t68.5 -47t44.5 -43l108 -109q12 -12 15.5 -67.5t23.5 -77.5q27 -27 62 -27q16 12 36.5 10t32.5 -16l23 -24q39 -39 0 -82l-111 -113q-39 -39 -82 0l-24 27q-14 12 -19.5 31.5t2.5 29.5q14 8 8 32.5t-30 49.5q-35 37 -78 43t-59 -16l-43 -43l-152 149l25 25q6 6 18 20 q44 46 -2 100q-59 57 -139 90t-130 36l-50 4zM1147 98.5q0 -28.5 18 -47.5q23 -20 51 -21t48 19q20 18 20 48t-20.5 50.5t-48 20.5t-50.5 -21q-18 -20 -18 -48.5z" />
<glyph unicode=")" horiz-adv-x="1206" d="M98 66l193 366l2 2q2 -16 16.5 -36.5t63.5 -47.5q34 -12 61 -12q35 0 53 12q27 -23 33 -24q35 -20 78 -21q39 0 76 21q8 4 28 24q27 -12 58 -12q27 0 59 12q45 20 63.5 47t20.5 37q2 -2 8 -2h4l193 -366l-205 -17l-129 -151l-170 268l-170 -268l-137 153zM106 864 q0 37 13 51q8 12 151 13h4l-4 2q-133 53 -135 71q-4 25 8 52q25 53 70 53q6 0 52 -26.5t50 -30.5l9 -2l-7 6q-98 98 -94 114q2 18 27 45q29 27 59 27q16 0 99 -96l8 -6l-4 8q-61 121 -45 143q14 16 41 29q23 8 41 8q33 0 81 -135l2 -4v4q0 145 15 153q18 12 51 13 q31 0 49 -13q14 -8 15 -153v-4v4q0 2 18 42t34.5 66.5t28.5 26.5q23 0 41 -8q29 -12 43 -29q14 -23 -47 -143v-8l2 6q82 96 101 96q33 0 61 -27q20 -23 27 -45q2 -6 -6.5 -19t-22.5 -27.5t-27.5 -28t-27 -25.5t-15.5 -14l-2 -6l7 2q4 4 51 30.5t55 26.5q47 0 66 -53 q14 -31 8 -52q-2 -18 -133 -71l-4 -2h4q145 -1 151 -13q12 -18 12 -51q0 -31 -12 -49q-8 -16 -151 -16h-4h4q2 -2 39.5 -16.5t65.5 -29t28 -24.5q4 -20 -8 -53q-20 -55 -66 -55q-8 0 -55 26.5t-51 30.5l-7 2l2 -2q2 -2 15.5 -14.5t27 -25.5t27.5 -28.5t22.5 -28t6.5 -18.5 q-6 -25 -27 -45q-31 -31 -61 -31q-6 0 -27.5 21.5t-46.5 49.5t-27 30l-2 2v-6q61 -123 47 -142q-20 -25 -43 -30q-25 -10 -41 -11q-12 0 -28.5 28t-33.5 65.5t-19 42.5v4v-4q0 -143 -15 -150q-16 -14 -49 -14q-35 0 -51 14q-14 6 -15 150v4l-2 -4q-53 -135 -81 -136 q-14 0 -41 11q-20 6 -41 30q-16 18 45 142l4 6l-8 -2q-2 -2 -27 -30t-45.5 -49.5t-26.5 -21.5q-29 0 -59 31q-25 25 -27 45q-4 16 94 115l7 2l-9 -2q-4 -4 -50 -30.5t-52 -26.5q-45 0 -70 55q-12 29 -8 53q0 10 29 24.5t65.5 29t40.5 16.5h4h-4q-143 0 -151 16 q-12 14 -13 49zM276 864q0 -131 94.5 -224t227.5 -93q131 0 223 93t92 224q0 133 -92 226.5t-223 93.5q-133 0 -227.5 -94.5t-94.5 -225.5zM350 864q0 -100 73 -171.5t175 -71.5q100 0 171 70.5t71 173t-71 174t-171 71.5q-102 0 -175 -71.5t-73 -174.5z" />
<glyph unicode="*" horiz-adv-x="1617" d="M123 774h524l162 496l162 -496h524l-424 -307l162 -500l-424 307l-426 -307l164 500z" />
<glyph unicode="+" horiz-adv-x="1329" d="M164 379v283h375v358h292v-358h375v-283h-375v-379h-292v379h-375z" />
<glyph unicode="," horiz-adv-x="1116" d="M123 924q0 182 128 310t312.5 128t314.5 -128t130 -310q0 -35 -6.5 -71t-22.5 -75t-28.5 -66.5t-39 -69.5t-39 -61.5t-44 -63.5t-37.5 -54q-169 -243 -209 -474q-2 -13 -2 -14q-2 -8 -7.5 -12t-10.5 0t-7 12q-4 25 -14.5 70t-65.5 173t-135 245q-145 203 -175 266 q-42 89 -42 195zM401 915q0 -72 49 -123t117 -51q72 0 121 51.5t49 123t-49 119.5t-121 48q-68 0 -117 -49t-49 -119z" />
<glyph unicode="-" d="M113 123l440 774l444 -774h-884z" />
<glyph unicode="." horiz-adv-x="1566" d="M57 1122q0 31 16.5 48.5t31.5 19.5l16 2h4q4 0 11 1t16 1q203 0 260 -168l886 -63q35 -2 57.5 -26t22.5 -56v-461q0 -35 -24.5 -59.5t-59.5 -24.5h-782q-29 0 -52.5 20.5t-27.5 49.5l-145 520q-25 94 -68 106q-16 4 -67.5 6t-73 18.5t-21.5 65.5zM371 102.5 q0 -57.5 40 -97.5t97 -40t97 40t40 97.5t-40 97.5t-97 40t-97 -40t-40 -97.5zM446 874l62 -186h201v170zM524 641l49 -158h136v158h-185zM774 483h205v158h-205v-158zM774 688h205v152l-205 14v-166zM1036 102.5q0 -57.5 40 -97.5t95 -40q57 0 97.5 40t40.5 97 q-2 57 -41 97.5t-97 40.5q-55 0 -95 -40t-40 -97.5zM1044 483h187v158h-187v-158zM1044 688h187v133l-187 15v-148z" />
<glyph unicode="/" d="M111 856h884l-440 -774z" />
<glyph unicode="0" horiz-adv-x="1163" d="M205 283v469h370l383 383v-1235l-383 383h-370z" />
<glyph unicode="1" horiz-adv-x="1501" d="M205 283v469h370l383 383v-1235l-383 383h-370zM1069 252q113 113 113 274q0 154 -105 260l101 101q160 -164 159 -373q1 -207 -161 -367z" />
<glyph unicode="2" horiz-adv-x="1818" d="M205 283v469h370l383 383v-1235l-383 383h-370zM1069 252q113 113 113 274q0 154 -105 260l101 101q160 -164 159 -373q1 -207 -161 -367zM1298 47q190 186 191 471q0 283 -191 473l109 109q119 -119 183.5 -273.5t64.5 -318.5q0 -332 -242 -574z" />
<glyph unicode="3" horiz-adv-x="1998" d="M205 0v1219h1589v-1219h-1589zM315 111h260v258h-260v-258zM315 479h260v260h-260v-260zM315 850h260v258h-260v-258zM686 111h258v258h-258v-258zM686 479h258v260h-258v-260zM686 850h258v258h-258v-258zM1055 111h260v258h-260v-258zM1055 479h260v260h-260v-260z M1055 850h260v258h-260v-258zM1425 111h258v258h-258v-258zM1425 479h258v260h-258v-260zM1425 850h258v258h-258v-258z" />
<glyph unicode="4" horiz-adv-x="1722" d="M205 104v263h262v-263h-262zM205 477v266h262v-266h-262zM205 856v264h262v-264h-262zM643 166v133h875v-133h-875zM643 522v133h875v-133h-875zM643 899v133h875v-133h-875z" />
<glyph unicode="5" horiz-adv-x="1665" d="M205 915v304h344v-304h-344zM246 74v112h262v-112h-262zM246 360v113h262v-113h-262zM246 647v113h262v-113h-262zM659 915v304h345v-304h-345zM700 74v112h263v-112h-263zM700 360v113h263v-113h-263zM700 647v113h263v-113h-263zM1116 915v304h344v-304h-344zM1157 74 v112h262v-112h-262zM1157 360v113h262v-113h-262zM1157 647v113h262v-113h-262z" />
<glyph unicode="6" horiz-adv-x="1802" d="M125 258q-6 57 31 102l393 488q33 41 83 50t95 -17l375 -219l332 409q35 43 92 49t102 -30q45 -35 50 -92.5t-29 -102.5l-406 -500q-33 -39 -83 -48t-95 18l-375 217l-319 -396q-43 -51 -109 -51q-49 0 -86 31q-45 35 -51 92z" />
<glyph unicode="7" horiz-adv-x="1523" d="M205 0v881h295v-881h-295zM614 0v655h295v-655h-295zM1024 0v1219h295v-1219h-295z" />
<glyph unicode="8" horiz-adv-x="1503" d="M123 518q0 225 158.5 385t384.5 160v-551h544v6q0 -225 -159.5 -384t-385 -159t-384 159t-158.5 384zM838 684v549q225 0 383.5 -159t158.5 -384v-6h-542z" />
<glyph unicode="9" horiz-adv-x="1378" d="M131 154q0 34 25 61q84 172 126 331t63.5 258t66.5 161q76 104 198 131q4 41 33 67.5t70 26.5t70.5 -27.5t31.5 -66.5q123 -27 199 -131q45 -61 66.5 -160.5t63.5 -258.5t126 -331q27 -31 26 -61q0 -68 -103 -117t-232.5 -70.5t-248 -21.5t-247.5 21.5t-231.5 70.5 t-102.5 117zM250 195q107 -127 463 -123q362 0 463 123q-100 121 -463 120.5t-463 -120.5zM621 244q0 14 92 14t92 -14q0 -43 -26.5 -73t-65.5 -30t-65.5 30t-26.5 73z" />
<glyph unicode=":" horiz-adv-x="493" d="M82 150q0 66 46 112.5t114 46.5q66 0 112.5 -47t46.5 -112q0 -68 -47 -114t-112 -46q-68 0 -114 46t-46 114zM82 725q0 66 46 113t114 47q66 0 112.5 -47t46.5 -113q0 -68 -47 -114t-112 -46q-68 0 -114 46t-46 114z" />
<glyph unicode=";" horiz-adv-x="495" d="M82 -150v-18q152 -6 242 76t90 192q0 80 -46 132.5t-118 52.5q-59 0 -99 -40t-40 -100q0 -47 28.5 -82.5t77.5 -46.5q-16 -109 -135 -166zM82 725q0 66 46 113t114 47q66 0 112.5 -47t46.5 -113q0 -68 -47 -114t-112 -46q-68 0 -114 46t-46 114z" />
<glyph unicode="&#x3c;" d="M82 498l836 424v-844z" />
<glyph unicode="=" horiz-adv-x="1576" d="M123 618q0 276 194.5 471t470.5 195q274 0 470 -194.5t196 -471.5q0 -274 -195.5 -469.5t-470.5 -195.5q-276 0 -470.5 195.5t-194.5 469.5zM674 963q0 -49 33.5 -84t83 -35t83 33.5t33.5 85.5q0 47 -33.5 80.5t-83 33.5t-83 -33.5t-33.5 -80.5zM692 172h199v571h-199 v-571z" />
<glyph unicode="&#x3e;" d="M205 78v844l835 -420z" />
<glyph unicode="?" horiz-adv-x="1576" d="M123 618q0 276 194.5 471t470.5 195q274 0 470 -194.5t196 -471.5q0 -274 -195.5 -469.5t-470.5 -195.5q-276 0 -470.5 195.5t-194.5 469.5zM524 791h213q0 94 47 94q45 0 45 -94q0 -109 -114 -109q-18 0 -33 2v-201h213v84q158 41 158 224q0 117 -75 191.5t-192 74.5 q-129 0 -195.5 -68.5t-66.5 -197.5zM664 266q0 -51 36.5 -89t88 -38t88 38t36.5 89t-36.5 89t-88 38t-88 -38t-36.5 -89z" />
<glyph unicode="@" horiz-adv-x="1513" d="M129 621q0 297 190 481q94 92 218 137q127 51 276 51q291 0 465 -174q76 -72 113 -168q41 -104 41 -227q0 -168 -76 -297q-96 -152 -266 -152q-70 0 -115 35q-35 25 -49 60q-70 -90 -187 -91q-133 0 -200 95q-68 86 -68 231q0 150 80 242q86 104 231 104q86 0 148 -61 l12 43h139l-28 -424q-4 -53 14 -72q10 -12 33 -12q57 0 98 56.5t55.5 121t14.5 121.5q0 178 -111 289q-123 125 -342 125q-209 0 -350 -125q-166 -150 -166 -402q0 -217 139 -362q133 -133 336 -133q223 0 395 75l25 13v-158l-10 -4q-166 -82 -412 -82q-270 0 -440 158 q-203 184 -203 506zM643 602q0 -37 6 -70.5t35 -68.5t78 -35q76 0 112 66q29 51 29 139q0 74 -26 121q-33 47 -99 47q-72 0 -104 -64q-31 -53 -31 -135z" />
<glyph unicode="A" horiz-adv-x="1902" d="M205 0v1038h233v99h148v-99h1112v-1038h-1493zM281 651h409q100 127 262 127q160 0 260 -127h410v312h-1341v-312zM674 444.5q0 -114.5 82 -196.5t196.5 -82t195.5 82t81 196.5t-81 196.5t-195.5 82t-196.5 -82t-82 -196.5zM791 444.5q0 -65.5 48 -112.5t113.5 -47 t112.5 47t47 112.5t-47 112.5t-112.5 47t-113.5 -47t-48 -112.5z" />
<glyph unicode="B" horiz-adv-x="1449" d="M205 168v952q0 51 35.5 87t87.5 36h762v-944h-668q-66 0 -104.5 -34t-38.5 -93v-4q0 -61 39.5 -98t103.5 -37h766v1026h57v-1100h-823q-92 0 -154.5 58.5t-62.5 150.5zM395 170q0 -31 35 -31h660v58h-660q-35 0 -35 -27z" />
<glyph unicode="C" horiz-adv-x="1570" d="M123 621q0 272 194.5 466.5t466.5 194.5q274 0 469 -193.5t195 -468t-194.5 -468t-469 -193.5t-468 193.5t-193.5 468.5zM303 252q8 -12 53 -62q55 -55 131 -98l150 283q66 -41 149 -41q121 0 204 83t83 204q0 117 -80 200l271 172q-22 31 -50 56q-59 59 -133 102 l-149 -283q-66 39 -146 39q-119 0 -202.5 -83t-83.5 -203q0 -115 75 -197zM664 621q0 51 35.5 87.5t86.5 36.5q53 0 89 -36.5t36 -87.5q0 -49 -37 -86t-88 -37q-49 0 -85.5 36.5t-36.5 86.5zM725 621q0 -27 16.5 -44.5t45 -17.5t46 17.5t17.5 44t-17.5 45t-46.5 18.5 q-27 0 -44 -17.5t-17 -45.5z" />
<glyph unicode="D" horiz-adv-x="1431" d="M205 0v1245h686l336 -344v-901h-1022zM352 147h727v705h-264v246h-463v-951zM438 565l279 -323l276 321h-192v172h-174l4 -170h-193z" />
<glyph unicode="E" horiz-adv-x="1843" d="M123 516q12 23 36.5 60.5t106.5 134t169 169t220 133t266.5 60.5t265.5 -57.5t224 -139t165 -163.5t108 -140l36 -57q-12 -23 -36.5 -60.5t-106.5 -133t-169 -168t-220 -133t-266.5 -60.5t-265.5 57.5t-224 138.5t-164.5 162.5t-108.5 139.5zM530 516q0 -162 115 -276.5 t276.5 -114.5t276.5 114.5t115 276.5t-115 276.5t-276.5 114.5t-276.5 -114.5t-115 -276.5zM748 516q0 -72 51 -123t122.5 -51t124 51t52.5 123q0 70 -53.5 123t-122.5 53q-72 0 -123 -52t-51 -124z" />
<glyph unicode="F" horiz-adv-x="950" d="M164 569v260h149v191q0 242 260 242h213v-240h-114q-59 0 -79 -28.5t-20 -80.5v-84h213l-20 -260h-193v-569h-260v569h-149z" />
<glyph unicode="G" horiz-adv-x="1654" d="M205 129v985q0 129 129 129h985q70 0 100.5 -30.5t30.5 -98.5v-985q0 -129 -131 -129h-338v406h160v194h-160v129q0 78 74 78h86v182h-183q-197 0 -196 -182v-207h-131v-194h131v-406h-428q-129 0 -129 129z" />
<glyph unicode="H" horiz-adv-x="1896" d="M164 723v276q0 86 142.5 154t260.5 82q41 6 107 8q44 1 91 1h46q70 -1 131.5 -2t106.5 -2l45 -1q57 0 95 -38t38 -93v-111h235v-276h-235v-107q0 -57 -38 -95t-95 -38l-48 -1q-48 -1 -112 -3t-134.5 -2t-136 2t-98.5 6q-39 6 -100.5 24.5t-132 48.5t-119.5 75t-49 92z M412 794.5q0 -49.5 34.5 -84t84 -34.5t84 34.5t34.5 84t-34.5 84t-84 34.5t-84 -34.5t-34.5 -84zM778 393l90 -330q17 -63 68 -63h242l-113 393h-287zM1536 721v278l197 144v-568z" />
<glyph unicode="I" horiz-adv-x="1619" d="M143 1202q0 31 21.5 52.5t52.5 21.5h1186q29 0 51.5 -21.5t22.5 -52.5t-22.5 -52.5t-51.5 -21.5h-10l-222 -1126h-716l-219 1126h-19q-31 0 -52.5 21.5t-21.5 52.5zM348 1128l12 -65l66 65h-78zM377 977l29 -139l43 -43l126 127l-126 125zM436 678l41 -211l98 98 l-126 125zM500 385l127 -125l127 125l-127 127zM500 743l127 -127l127 127l-127 125zM500 1100l127 -127l127 127l-31 28h-193zM518 264l29 -151h123zM680 207l94 -94h62l96 94l-127 127zM680 565l125 -127l127 127l-127 125zM680 922l125 -127l127 127l-127 125zM858 385 l125 -125l127 125l-127 127zM858 743l125 -127l127 127l-127 125zM858 1100l125 -127l127 127l-31 28h-192zM940 113h139l35 172zM1036 565l111 -112l41 211l-27 26zM1036 922l125 -127l66 63l20 105l-86 84zM1184 1128l80 -77l16 77h-96z" />
<glyph unicode="J" horiz-adv-x="1536" d="M141 229q-3 10 -3 19q0 17 9 33l398 688l323 202l156 -88q4 10 14 60q0 4 4.5 22.5t6.5 26.5t8 27.5t11 32t13.5 32t19.5 33.5t24.5 31.5t31 34t37.5 32.5q36 30 81 30q40 0 87 -24q47 -20 82 -65q29 -45 33 -94q-4 -84 -107 -134q-72 -33 -178 -45q-86 -10 -115 -30 l152 -88l-17 -381l-397 -688q-14 -25 -41 -33q-9 -3 -18 -3q-16 0 -31 9l-551 319q-25 14 -33 41zM788 822q15 -58 66 -89q33 -19 70 -19q20 0 40 6q60 15 89 66q20 35 20 72q0 8 -1 16q-5 46 -36 80l-69 43q-22 8 -44 8q-25 0 -49 -10q-47 -18 -73 -63q-19 -33 -19 -70 q0 -19 6 -40zM1063 1085q35 23 125 31q104 12 168 43q84 37 88 103q0 76 -86 124q-2 2 -10 7q-39 19 -71 19q-36 0 -65 -23q-115 -88 -141 -250q0 -8 -4 -25q0 -4 -1 -13t-3 -16z" />
<glyph unicode="K" horiz-adv-x="1431" d="M205 0v1245h686l336 -344v-901h-1022zM352 147h727v705h-264v246h-463v-951zM453 301h520v57h-520v-57zM453 465h520v57h-520v-57zM453 629h520v57h-520v-57z" />
<glyph unicode="L" horiz-adv-x="1636" d="M166 724q10 54 43 83q-16 36 -16 70q-1 19 5 37q14 50 56 79q-12 39 -12 70q0 131 208 147q32 2 66 2q173 0 382 -64q85 -26 103 -44v94q0 20 14.5 34.5t33.5 14.5h333q20 0 35 -14t15 -35v-788q0 -18 -14.5 -33t-35.5 -15h-333q-18 0 -33 14.5t-15 33.5v53 q-72 -47 -133 -142.5t-83.5 -155t-26.5 -79.5q-41 -168 -176 -168q-76 0 -137.5 74t-61.5 207q0 92 47 176h-31q-105 0 -173 56q-48 40 -48 111q0 29 8 64q-22 47 -22 90q0 15 2 28zM305 577q-1 -6 -1 -12q0 -40 44 -62q22 -11 51 -11h123q31 0 46.5 -15.5t15.5 -38.5 q0 -20 -42 -106t-42 -131q0 -72 26.5 -119t55.5 -47q51 0 59 63q18 127 133 291t227 213v371q-227 113 -503 119h-13q-87 0 -123 -49q-11 -15 -11 -29q0 -26 41 -44q17 -8 40 -14q24 -3 23 -18q-1 -12 -19 -12q-101 0 -117 -53q-3 -8 -3 -15q0 -30 43 -48q14 -5 30 -7 q12 0 17.5 -6t0 -12.5t-17.5 -6.5q-55 0 -79 -30q-13 -17 -13 -35q1 -14 9 -28q18 -32 69 -34q10 0 14 -6t0 -12t-14 -6q-63 0 -70 -50z" />
<glyph unicode="M" horiz-adv-x="1228" d="M205 123v1108q0 51 35.5 87t87.5 36h573q51 0 87 -36t36 -87v-1108q0 -51 -36 -87t-87 -36h-573q-51 0 -87 36t-36 87zM332 813h565v397h-565v-397zM354 419.5q0 -106.5 77 -183t183.5 -76.5t183 75.5t76.5 184t-76.5 184.5t-183 76t-183.5 -77t-77 -183.5zM516 420 q0 41 28.5 69.5t69.5 28.5t70 -28.5t29 -69.5t-29 -69.5t-70 -28.5t-69.5 28.5t-28.5 69.5z" />
<glyph unicode="N" horiz-adv-x="1124" d="M205 129v1124q0 16 13 29.5t30 13.5h626q18 0 32 -13t14 -30v-1124q0 -53 -39 -92t-93 -39h-452q-53 0 -92 39t-39 92zM305 223q0 -39 24.5 -64.5t63.5 -25.5h64v90h-152zM305 262h152v86h-152v-86zM305 387h152v86h-152v-86zM305 512h152v86h-152v-86zM305 688h514v399 h-514v-399zM483 1182q0 -29 27 -29h104q25 0 25 29q0 26 -23 26h-2h-104q-27 0 -27 -26zM489 133h146v90h-146v-90zM489 262h146v86h-146v-86zM489 387h146v86h-146v-86zM489 512h146v86h-146v-86zM670 133h59q41 0 65.5 25.5t24.5 64.5h-149v-90zM670 262h149v86h-149v-86z M670 387h149v86h-149v-86zM670 512h149v86h-149v-86z" />
<glyph unicode="O" horiz-adv-x="1187" d="M205 123v1098q0 59 38 96t99 37h504q61 0 99 -37t38 -96v-1098q0 -51 -36 -87t-87 -36h-532q-51 0 -87 36t-36 87zM279 270h630v813h-630v-813zM467 1239q0 -27 25 -27h204q25 0 25 27t-25 27h-204q-25 0 -25 -27zM516 131q0 -31 22.5 -54.5t55.5 -23.5t55.5 23.5 t22.5 54.5q0 33 -22.5 55.5t-55.5 22.5t-55.5 -22.5t-22.5 -55.5z" />
<glyph unicode="P" horiz-adv-x="1798" d="M205 129v821q0 68 33 100q29 29 83 29h13h1128q70 0 100.5 -30.5t30.5 -98.5v-821q0 -129 -131 -129h-1128q-129 0 -129 129zM631 227l618 312l-618 311v-623z" />
<glyph unicode="Q" horiz-adv-x="1574" d="M205 164v1106q0 68 47 116t115 48h841q68 0 115 -48.5t47 -115.5v-1106q0 -68 -47 -116t-115 -48h-841q-68 0 -115 48t-47 116zM401 254h773v983h-773v-983zM711 131q0 -31 22.5 -54.5t55 -23.5t55 23.5t22.5 54.5q0 33 -21.5 55.5t-56 22.5t-56 -22.5t-21.5 -55.5z" />
<glyph unicode="R" horiz-adv-x="1288" d="M276 862q156 152 365 152l-66 282l541 -372l-520 -396l47 301q-139 -2 -237.5 -100t-98.5 -235q0 -139 99.5 -238.5t238.5 -99.5t237.5 99.5t98.5 238.5h184q0 -217 -151 -369q-150 -154 -369 -154t-369 154q-153 153 -153 366q0 214 153 371z" />
<glyph unicode="S" horiz-adv-x="1673" d="M184 346q0 29 19.5 49.5t48.5 24.5v678q-29 2 -48.5 22.5t-19.5 48.5q0 31 21.5 52.5t52.5 21.5h535l30 80h19l30 -80h543q31 0 52.5 -21.5t21.5 -52t-21.5 -52t-52.5 -21.5v-676q31 0 52.5 -21.5t21.5 -52.5t-21.5 -52.5t-52.5 -21.5h-536v-94l272 -166l-25 -43l-247 94 v-188q0 -23 -15.5 -38t-36.5 -15q-23 0 -36 15t-13 38v188l-246 -94l-24 43l270 166v94h-520q-31 0 -52.5 21.5t-21.5 52.5zM346 426h975v664h-975v-664z" />
<glyph unicode="T" horiz-adv-x="1077" d="M188 469v571q0 53 38 91t93 38q53 0 91.5 -37.5t38.5 -91.5v-190h333q55 0 93 -38t38 -93q0 -53 -37.5 -91t-93.5 -38h-333v-121q0 -86 60.5 -144.5t154.5 -64.5h118q55 0 93 -38t38 -91q0 -55 -37.5 -93t-93.5 -38h-127h-2q-197 10 -325 139q-139 129 -140 330z" />
<glyph unicode="U" horiz-adv-x="1654" d="M205 129v985q0 129 129 129h985q70 0 100.5 -30.5t30.5 -98.5v-985q0 -129 -131 -129h-985q-129 0 -129 129zM559 557q0 -158 100 -246q98 -98 242 -104h139q41 0 69 28.5t28 69.5q0 39 -28 67.5t-69 28.5h-133q-70 4 -113.5 47.5t-43.5 108.5v86h290q41 0 69 28.5 t28 67.5q0 41 -28 70t-69 29h-290v120q0 39 -29 69t-66 30q-41 0 -68.5 -29t-27.5 -70v-401z" />
<glyph unicode="V" horiz-adv-x="1792" d="M162 0v1245h887l-123 -127h-617v-971h727v428l148 166v-741h-1022zM502 369l67 258l609 624q0 6 122 37l3 2l108 -112l-37 -123l-608 -629l-260 -59zM588 524l76 -73l63 14l37 37l8 57l-74 76l-57 -10l-37 -35zM1241 1319l92 92q43 43 102.5 43t100.5 -41q41 -39 41 -94 v-5q-2 -58 -45 -104l-94 -92l28 123l-104 105z" />
<glyph unicode="W" horiz-adv-x="1826" d="M205 489v648q0 45 31.5 76.5t76.5 31.5h799q45 0 76 -31.5t31 -76.5v-119h-166v72h-682v-551h94v-156h-152q-45 0 -76.5 31.5t-31.5 74.5zM608 106v662q0 43 32 74.5t75 31.5h801q45 0 75.5 -31.5t30.5 -74.5v-662q0 -43 -30.5 -74.5t-75.5 -31.5h-801q-43 0 -75 31.5 t-32 74.5zM772 154h686v567h-686v-567z" />
<glyph unicode="X" horiz-adv-x="1333" d="M166 221l299 299l-297 293l199 203l297 -297l297 297l200 -203l-297 -293l299 -301l-202 -199l-297 299l-297 -299z" />
<glyph unicode="Y" horiz-adv-x="2172" d="M123 623q0 108 128 184l15 8h545q303 0 520 283q0 23 16.5 39t41 16t42 -16.5t17.5 -38.5v-946q0 -23 -17.5 -39.5t-42 -16.5t-41 16.5t-16.5 39.5q-219 270 -520 270h-104l229 -387l-139 -101q-15 -8 -30 -8q-31 0 -62 37l-285 459h-154q-6 4 -15 9t-33.5 25.5t-44 42 t-35 55.5t-15.5 69zM301 565q0 -10 9 -19t20 -9h164q10 0 18 9t8 19q0 27 -26 27h-164q-10 0 -19.5 -8.5t-9.5 -18.5zM301 684q0 -10 9 -19.5t20 -9.5h164q10 0 18 9.5t8 19.5q0 27 -26 27h-164q-10 0 -19.5 -8.5t-9.5 -18.5zM838 514q276 0 475 -199v617 q-195 -207 -475 -207v-211zM1597 307l56 55l225 -225l-55 -53zM1597 930l226 223l55 -53l-225 -226zM1694 588v78h377v-78h-377z" />
<glyph unicode="Z" horiz-adv-x="1533" d="M205 0v133h842v-133h-842zM205 295v133h1141v-133h-1141zM205 590v133h842v-133h-842zM205 885v133h1141v-133h-1141z" />
<glyph unicode="[" horiz-adv-x="1175" d="M82 467h348l-4 551h319v-555h349l-504 -502z" />
<glyph unicode="\" horiz-adv-x="1800" d="M205 2v262h262v-262h-262zM205 375v266h262v-266h-262zM205 754v264h262v-264h-262zM582 2v262h264v-262h-264zM582 375v266h264v-266h-264zM582 754v264h264v-264h-264zM956 2v262h265v-262h-265zM956 377v266h265v-266h-265zM956 754v264h265v-264h-265zM1333 2v266 h262v-266h-262zM1333 377v266h262v-266h-262zM1333 754v264h262v-264h-262z" />
<glyph unicode="]" horiz-adv-x="1175" d="M82 555l504 502l508 -506h-349l5 -551h-320v555h-348z" />
<glyph unicode="^" horiz-adv-x="1458" d="M205 139q0 61 44 105.5t105.5 44.5t106.5 -44t45 -105.5t-45 -105.5t-106.5 -44t-105.5 43t-44 106zM213 528v195q297 0 509 -197.5t212 -525.5h-205q0 215 -151.5 371.5t-364.5 156.5zM213 920v210q225 0 434 -83.5t365.5 -229t251 -359.5t94.5 -458h-223q0 180 -75 350 t-200 295t-295 200t-352 75z" />
<glyph unicode="_" horiz-adv-x="2560" d="M205 -2v1032h2150v-1032h-2150zM537 164h309v112h-309v-112zM537 451h309v110h-309v-110zM537 737h309v109h-309v-109zM1716 164h309v112h-309v-112zM1716 451h309v110h-309v-110zM1716 735h309v111h-309v-111z" />
<glyph unicode="`" horiz-adv-x="1562" d="M82 1309q4 192 137 323l64 -65q-109 -104 -109 -264q0 -156 109 -265l-62 -63q-135 135 -139 334zM240 57l454 1170l70 47h27l67 -47l455 -1170q10 -29 -2.5 -57.5t-40.5 -38.5q-8 -4 -27 -4q-51 0 -67 47l-23 57h-373h-381l-22 -57q-16 -47 -68 -47q-18 0 -26 4 q-29 10 -41.5 39t-1.5 57zM346 1305q0 116 94 208l60 -61q-66 -61 -66 -154q0 -86 60 -145l-58 -57q-90 90 -90 209zM428 135h279l-201 199zM535 410l67 -66l127 125l-123 123zM641 659l139 -137l140 137h-279zM653 291l127 -127l127 127l-127 127zM662 733h229l-115 297z M682 1370q0 39 27.5 66.5t66.5 27.5t66.5 -27.5t27.5 -66.5t-27.5 -66.5t-66.5 -27.5t-66.5 27.5t-27.5 66.5zM831 469l127 -125l62 59l-72 183zM854 135h270l-75 195zM1063 1149q66 61 65 156q0 82 -59 145l57 57q90 -100 91 -211q-1 -116 -93 -206zM1280 1034 q111 106 106 264q4 156 -106 267l61 59q135 -133 140 -332q-5 -192 -138 -321z" />
<glyph unicode="a" horiz-adv-x="1980" d="M205 260v756h217v201h1354v-1035q0 -72 -53.5 -127t-118.5 -55h-1176q-223 0 -223 260zM315 260q0 -139 52 -139q55 0 55 139v645h-107v-645zM502 111h1102q27 0 44 23t17 48v924h-1133v-846q0 -88 -30 -149zM709 250v37h260v-37h-260zM709 367v36h260v-36h-260zM709 479 v37h260v-37h-260zM709 596v37h260v-37h-260zM709 717v37h260v-37h-260zM748 872v72h682v-72h-682zM1071 338v416h436v-416h-436z" />
<glyph unicode="b" horiz-adv-x="1681" d="M205 446v631q1 72 35 107q33 33 97 33h7h995q137 0 138 -140v-635q0 -133 -138 -133h-448l-496 -399l103 399h-154q-139 0 -139 137zM467 567h747v135h-747v-135zM467 823h747v135h-747v-135z" />
<glyph unicode="c" horiz-adv-x="1730" d="M61 1022v180q0 45 32 77t77 32h365v8q0 33 24.5 56.5t56.5 23.5h19q33 0 56.5 -23.5t23.5 -56.5v-8h303v8q0 33 22.5 56.5t55.5 23.5h20q33 0 56.5 -23.5t23.5 -56.5v-8h365q45 0 76.5 -32t31.5 -77v-180q0 -45 -31.5 -77t-76.5 -32h-164v-800q0 -113 -115 -113h-833 q-115 0 -115 113v800h-164q-45 0 -77 32t-32 77zM594 201q0 -29 21.5 -50.5t54.5 -21.5q29 0 50 21.5t21 50.5q0 31 -21.5 52t-49.5 21q-33 0 -54.5 -21.5t-21.5 -51.5zM594 389q0 -31 21.5 -52.5t54.5 -21.5q29 0 50 21.5t21 52.5q0 29 -21.5 50.5t-49.5 21.5 q-33 0 -54.5 -21.5t-21.5 -50.5zM594 578q0 -33 21.5 -53.5t54.5 -20.5q31 0 51 20.5t20 53.5q0 29 -21.5 50t-49.5 21q-33 0 -54.5 -21.5t-21.5 -49.5zM594 764q0 -29 21.5 -50.5t54.5 -21.5q29 0 50 21.5t21 50.5q0 31 -21.5 52.5t-49.5 21.5q-33 0 -54.5 -21.5 t-21.5 -52.5zM793 201q0 -29 21 -50.5t52 -21.5q29 0 50.5 21.5t21.5 50.5q0 31 -21.5 52t-50.5 21q-31 0 -52 -21.5t-21 -51.5zM793 389q0 -31 21 -52.5t52 -21.5q29 0 50.5 21.5t21.5 52.5q0 29 -21.5 50.5t-50.5 21.5q-31 0 -52 -21.5t-21 -50.5zM793 578 q0 -33 21.5 -53.5t52 -20.5t51 20.5t20.5 53.5q0 29 -21.5 50t-50.5 21q-31 0 -52 -21.5t-21 -49.5zM793 764q0 -29 21 -50.5t52 -21.5q29 0 50.5 21.5t21.5 50.5q0 31 -21.5 52.5t-50.5 21.5q-31 0 -52 -21.5t-21 -52.5zM989 201q0 -29 21.5 -50.5t52.5 -21.5t52.5 21.5 t21.5 50.5q0 31 -20.5 52t-53.5 21q-31 0 -52.5 -21.5t-21.5 -51.5zM989 389q0 -31 21.5 -52.5t52.5 -21.5q33 0 53.5 21.5t20.5 52.5q0 29 -21.5 50.5t-52.5 21.5t-52.5 -21.5t-21.5 -50.5zM989 578q0 -33 21.5 -53.5t52.5 -20.5q33 0 53.5 20.5t20.5 53.5q0 29 -21.5 50 t-52.5 21t-52.5 -21.5t-21.5 -49.5zM989 764q0 -29 21.5 -50.5t52.5 -21.5t52.5 20.5t21.5 51.5t-20.5 52.5t-53.5 21.5q-31 0 -52.5 -21.5t-21.5 -52.5z" />
<glyph unicode="d" horiz-adv-x="1951" d="M205 254v600q0 53 35.5 90t91.5 37h157v193h56v210h864v-210h55v-193h160q49 0 86 -38t37 -89v-600q0 -51 -37 -89t-86 -38h-125l55 -250h-1132l45 250h-135q-55 0 -91 37t-36 90zM330 758q0 -37 26.5 -62.5t61.5 -25.5q37 0 63.5 25.5t26.5 62.5q0 35 -26.5 61.5 t-63.5 26.5q-35 0 -61.5 -26.5t-26.5 -61.5zM520 -47h930l-78 395h-792zM602 829h750v478h-750v-478zM707 137h227v58h-227v-58zM1030 137h227v58h-227v-58z" />
<glyph unicode="e" horiz-adv-x="1388" d="M123 -49l184 727l389 387q66 19 133.5 19t137.5 -19l-338 -336l-246 -127l-53 -291q88 -90 159 -159l289 55l127 246l342 342q18 -74 18 -134q0 -63 -12 -104l-10 -39l-387 -389l-729 -184zM621 446l98 193l371 371q33 -23 55 -43.5t43 -55.5l-371 -370l-192 -99z" />
<glyph unicode="f" horiz-adv-x="1595" d="M66 0q-3 9 -3 38.5t3 78.5q37 18 156.5 56t229 68.5t115.5 34.5l2 74l31 8q12 115 12 134q-47 92 -57 145q-39 0 -43 39q-2 16 -3 49t-7 49q-4 20 8 38.5t27 14.5q-21 105 -21 172.5t21 96.5q100 143 323 182q22 3 37 3q21 0 31 -5l6 -3q2 -1 0 -5t-6 -10.5t-15 -16.5 q12 -8 31 -21.5t56.5 -57.5t54.5 -91q12 -46 12 -113v-19q-2 -79 -12 -112q0 -2 7 0t14 -7t5 -25q0 -8 -2 -22.5t-2 -26t-2 -26.5t-4 -24.5t-5 -23t-6 -19.5t-8 -13t-10.5 -6t-13.5 3q-2 -131 -41 -158q-5 -41 -5 -66q0 -38 11 -40h27q10 -84 31 -107q438 -113 481 -162 v-104h-1466z" />
<glyph unicode="g" horiz-adv-x="2355" d="M61 4q0 12 4.5 29.5t28 57.5t62.5 58.5t143 53.5t198.5 63.5t100.5 30.5l2 76l33 8q10 123 10 139q-47 98 -59 152q-41 0 -47 45q-2 12 -3.5 47t-5.5 53q-4 23 8.5 42.5t28.5 14.5q-21 110 -21 180.5t21 102.5q106 150 338 191q21 2 37 2q24 0 35 -4q14 -4 -1 -22 q-5 -5 -16 -15q12 -8 32 -22.5t60 -61.5t56 -97q14 -49 14 -119v-18q-2 -82 -14 -117q2 -2 9 0.5t15.5 -7t6.5 -27.5q-13 -138 -29 -161q-11 -15 -27 -7q-2 -133 -45 -162q-4 -39 -4 -64q0 -46 12 -49h27q12 -88 33 -110q100 -41 215 -68q59 -15 138 -15q17 0 36 1 q2 8 19.5 41t22.5 67t5 93q0 25 -10 52t-21 44l-10 16q0 -2 -2 -5t-8 -8t-19 1q-41 23 -51 69q-4 47 -30 80q-8 14 1 33t35 21q-2 4 -3 9t-3 18.5t4 17.5q-4 0 -9 1t-15 8t2 25q-10 4 -19.5 10.5t-21.5 31.5q-3 5 -3 12q0 19 29 43q-20 21 -20 35q0 16 29 20q-4 4 -8.5 10 t-12.5 23.5t-8 32t13.5 32t41.5 27.5q-4 10 -9 25.5t-12 55.5q-4 25 -4 47q0 13 1 25q4 31 28.5 59t73.5 30q15 2 29 2q25 0 48 -7q36 -10 86 -37.5t71 -35.5q12 10 32.5 25.5t67.5 37.5q37 18 63 18q7 0 13 -1q84 -16 107 -87q8 -22 8 -45q0 -49 -35 -98q10 3 19 3 q35 0 48 -46q4 -15 4 -28q0 -37 -32 -60q16 -18 16 -38t-16 -40q6 -8 12 -20t4 -39t-29 -39q-10 -41 -24 -59q27 4 34 -17q7 -17 7 -34q0 -23 -13 -44q-6 -8 -32 -69q0 -2 -3.5 -13.5t-6.5 -16.5t-9 -12t-16 -6t-23 9q-47 -57 -59 -139q-3 -23 -3 -47q0 -58 21 -117l10 -19 q332 -68 396 -94v-94h-1147v4h-1086z" />
<glyph unicode="h" horiz-adv-x="2041" d="M205 2v819h1118v-819h-1118zM1419 307l418 -260v729l-418 -260v-209z" />
<glyph unicode="i" horiz-adv-x="1648" d="M52 1268q-9 19 -10 37q0 19 10 37q18 36 63 36h145q51 0 73.5 -20.5t43.5 -67.5l51 -102h926q43 0 66.5 -22.5t23.5 -59.5v-383q0 -33 -21.5 -55.5t-54.5 -26.5l-827 -92q-33 -4 -47.5 -27.5t0 -46t51.5 -22.5h784q43 0 61 -34q9 -17 8.5 -33.5t-8.5 -33.5 q-18 -33 -61 -33h-801q-86 -1 -138 53q-45 46 -45 108q0 8 1 18q8 72 76 125l72 53l-254 555h-125q-45 0 -63 37zM215 94q0 53 37 91t90 38q55 0 92 -38t37 -91t-37 -90t-92 -37q-51 0 -89 37t-38 90zM481 1073l64 -139h207l-45 139h-226zM575 860l84 -182l164 16l-53 166 h-195zM780 1073l43 -139h203l-33 139h-213zM844 860l51 -158l184 19l-41 139h-194zM1067 1073l31 -139h233v139h-264zM1081 94q0 53 38 91t91.5 38t90 -38t36.5 -91t-36.5 -90t-90 -37t-91.5 37t-38 90zM1114 860l33 -129l184 19v110h-217z" />
<glyph unicode="j" horiz-adv-x="1572" d="M246 967q82 82 217 82q49 0 91 -11.5t64.5 -20.5t62.5 -46t48 -47.5t57 -65.5q96 110 138 139q75 52 186 52q135 0 217 -82t82 -215q0 -174 -156 -328l-467 -465l-467 465q-155 153 -155 326q0 135 82 217z" />
<glyph unicode="k" horiz-adv-x="1269" d="M61 0v78q76 49 342 110q6 23 20.5 51.5t23 64.5t8.5 102q0 25 -10.5 52t-20.5 44l-10 16q0 -2 -2 -5t-8.5 -8t-18.5 1q-41 23 -51 69q-4 47 -31 80q-8 14 1 33t36 21q-2 4 -3 9t-3 18.5t4 17.5q-4 0 -9 1t-15.5 8t1.5 25q-10 4 -19 10q-10 8 -22 32q-3 6 -3 12 q0 20 30 43q-21 22 -21 35q0 16 29 20q-4 4 -8 10t-12 23.5t-8 32t13 32t42 27.5q-4 10 -9 25.5t-13 55.5q-5 26 -4 49q0 13 1 23q4 32 29 59.5t74 29.5q15 2 29 2q25 -1 47 -7q36 -10 86.5 -37.5t70.5 -35.5q12 10 32.5 25.5t68.5 37.5q38 18 62 18q7 0 13 -1 q83 -16 107 -87q7 -22 8 -45q0 -49 -35 -98q10 3 19 3q36 0 48 -46q4 -15 4 -28q0 -37 -32 -60q16 -18 16 -38t-16 -40q6 -8 12.5 -20t4 -39t-28.5 -39q-10 -41 -25 -59q27 4 35 -17q7 -17 7 -34q0 -23 -13 -44q-6 -8 -33 -69q0 -2 -3 -13.5t-6 -16.5t-9 -12t-16.5 -6 t-22.5 9q-48 -57 -60 -139q-4 -24 -3 -47q0 -58 22 -117l10 -19q332 -68 395 -94v-94h-1147z" />
<glyph unicode="l" horiz-adv-x="1636" d="M205 23v788q0 18 14 32.5t33 14.5h336q18 0 32.5 -14.5t14.5 -32.5v-53q72 47 132 142t83.5 154.5t28.5 80.5q39 168 174 168q78 0 139 -74t61 -207q0 -86 -47 -176h29q109 0 177 -56q46 -39 46 -107q0 -31 -10 -69q24 -48 24 -91q0 -13 -2 -26q-10 -54 -43 -83 q16 -36 15 -70q0 -20 -4 -38q-14 -51 -56 -79q12 -39 12 -70q0 -130 -208 -146q-32 -2 -66 -2q-173 0 -381 64q-85 26 -104 44v-94q0 -20 -14.5 -35t-32.5 -15h-336q-18 0 -32.5 14.5t-14.5 35.5zM635 248q219 -109 504 -121h10q89 0 124 49q12 16 12 30q0 26 -40 45 q-17 8 -41 13q-24 3 -23 19q1 12 17 12q98 0 118 51q3 9 3 17q0 27 -38 44q-15 7 -34 9q-12 2 -17 8t0 12t17 6q55 0 79 31q14 18 14 35q0 14 -8 28q-18 32 -70 33q-10 0 -14.5 6.5t-0.5 12.5t15 6q64 0 70 50q1 6 0 10q0 42 -46 64q-23 11 -51 11h-121q-31 0 -47 15.5 t-16 37.5q0 20 43 106.5t43 131.5q0 72 -28 119t-56 47q-49 0 -58 -64q-18 -127 -132.5 -290.5t-227.5 -213.5v-370z" />
<glyph unicode="m" horiz-adv-x="1861" d="M205 76v833l424 -399zM285 0l424 432l221 -209l225 213l422 -436h-1292zM307 1018h1245l-622 -592zM1235 512l422 397v-833z" />
<glyph unicode="n" horiz-adv-x="1126" d="M123 406q0 186 131 313v272q0 127 91 218t218 91t217 -91t90 -218v-272q133 -129 134 -313q0 -182 -129.5 -311.5t-311.5 -129.5t-311 129t-129 312zM227 406l21 -50h139v99h-139zM303 217l21 -49l49 -18l100 100l-70 69zM303 594l100 -100l70 69l-100 101l-49 -19z M420 821q68 24 139.5 24.5t145.5 -24.5v170q0 59 -42 101.5t-100 42.5q-59 0 -101 -42.5t-42 -101.5v-170zM512 94l49 -20l49 20v139h-98v-139zM512 580h98v139l-49 20l-49 -20v-139zM647 250l101 -100l51 18l18 49l-100 102zM647 563l70 -69l100 100l-18 49l-51 21z M733 356h139l21 50l-21 49h-139v-99z" />
<glyph unicode="o" horiz-adv-x="1826" d="M205 96v824q0 41 28.5 69.5t69.5 28.5h375v-148h-326v-723h1067v267h148v-318q0 -39 -28 -67.5t-69 -28.5h-1167q-41 0 -69.5 28.5t-28.5 67.5zM670 369q0 12 1 35.5t10 89t25.5 125t51.5 133t82 126t123.5 88t171.5 35.5l-56 242l543 -381l-543 -387l60 273 q-8 0 -22.5 -1.5t-57.5 -8.5t-81 -20t-85 -42t-81 -67t-57.5 -100.5t-23.5 -139.5h-61z" />
<glyph unicode="p" horiz-adv-x="2230" d="M164 870v148h897v282h553v-282h452v-148h-1902zM340 -2v801h1546v-801h-932v491h-278v-491h-336zM1200 397h240v289h-240v-289zM1513 397h240v289h-240v-289z" />
<glyph unicode="q" horiz-adv-x="1396" d="M82 858v213q0 127 90 217t217 90t218 -90t91 -217v-248q62 21 136 21q182 0 311 -128t129 -310.5t-129 -311.5t-311.5 -129t-311.5 129t-129 312q0 190 139 319v346q0 59 -41.5 100t-101.5 41q-57 0 -99 -41t-42 -100v-213h-166zM500 406l20 -50h139v99h-139zM575 217 l21 -49l49 -18l100 100l-69 69zM575 594l101 -100l69 69l-100 101l-49 -19zM784 94l50 -20l49 20v139h-99v-139zM784 580h99v139l-49 20l-50 -20v-139zM920 250l100 -100l51 18l19 49l-101 102zM920 563l69 -69l101 100l-19 49l-51 21zM1006 356h139l20 50l-20 49h-139v-99z " />
<glyph unicode="r" horiz-adv-x="1650" d="M180 -33l90 344l807 803q29 8 58 8q21 0 41 -4l-857 -856l-24 -90l98 -98l92 24l41 39l4 92l-65 66l784 784q12 -10 25 -24q77 -76 77 -146q0 -25 -10 -50l-4 -7l-807 -807l-344 -84zM1137 1178l80 79q53 55 134 57h4q78 0 128 -52q56 -54 56 -127v-7q-3 -77 -62 -137 l-76 -76q6 10 12 28q2 6 2 15q0 20 -9 56q-13 53 -67 104q-71 71 -144 71q-26 0 -52 -9z" />
<glyph unicode="s" horiz-adv-x="1409" d="M82 80q0 43 24 74l211 213l207 84q-109 131 -108 299q0 186 135 319t321 133q184 0 319.5 -135t135.5 -319q0 -193 -131 -324q-135 -135 -324 -135q-166 0 -297 108l-83 -204l-213 -213q-34 -25 -74 -25q-49 0 -86 38t-37 87zM592 748q0 -119 82 -201q86 -82 198 -82 q115 0 197 83t82 200q0 113 -83 195.5t-196 82.5q-115 0 -197.5 -83t-82.5 -195z" />
<glyph unicode="t" horiz-adv-x="1585" d="M72 414l40 -10q24 -5 94 -12q26 -3 47 -3q36 0 60 8q84 16 150.5 81t93.5 179q14 66 62.5 117t88.5 70l40 18q0 150 93 221.5t195 71.5q78 0 129.5 -32.5t64.5 -64.5l13 -32h277v-35l-217 -139q2 -15 2 -29q-1 -41 -17 -77q-22 -48 -48 -66l-26 -18q4 -8 8 -24 q5 -16 10 -66q3 -28 3 -55q0 -22 -2 -43q-4 -48 -28.5 -110.5t-69.5 -115.5q-129 -150 -295 -150q-63 0 -131 21q-32 8 -31 -15q14 -57 14 -99q0 -113 -100 -122h-8q-34 0 -52 32q-20 36 -19 74l1 38q-94 -83 -148 -83q-25 0 -41 17q-21 22 -14 55q8 35 39 79t58 71l26 27 q-84 0 -151.5 22.5t-105.5 55t-63.5 65.5t-33.5 55zM985 938q0 -33 23.5 -57.5t58.5 -24.5t58.5 24.5t23.5 57.5t-23.5 57.5t-58.5 24.5t-58.5 -24.5t-23.5 -57.5z" />
<glyph unicode="u" horiz-adv-x="1300" d="M123 86l188 186l-118 119h344v-344l-119 119l-187 -189zM123 926l108 106l187 -190l119 121v-345h-344l118 119zM764 47v344h344l-119 -119l189 -186l-107 -109l-188 189zM764 618v345l119 -119l188 188l107 -106l-189 -189l119 -119h-344z" />
<glyph unicode="v" horiz-adv-x="1423" d="M205 -2v344l119 -119l186 189l108 -109l-188 -186l119 -119h-344zM205 668v344h344l-119 -119l188 -188l-108 -107l-186 190zM805 303l106 109l189 -189l119 119v-344h-345l119 119zM805 705l188 188l-119 119h345v-344l-119 118l-189 -188z" />
<glyph unicode="w" horiz-adv-x="1574" d="M123 625q0 274 194.5 467.5t471 193.5t470 -192.5t193.5 -468.5q0 -279 -192.5 -472.5t-471.5 -193.5q-276 0 -470.5 193.5t-194.5 472.5zM246 625q0 -53 4 -76q55 -66 217 -94q-12 78 -12 163q0 53 6 113q-135 27 -193 51q-22 -75 -22 -150v-7zM276 440 q52 -126 130 -198q66 -72 174 -117q-66 92 -99 248q-137 31 -205 67zM299 854q8 -8 170 -51q35 205 123 321q-131 -61 -186 -120q-66 -59 -107 -150zM528 618q0 -94 13 -178q98 -16 207 -20v289q-125 4 -218 14q0 -18 -1 -52.5t-1 -52.5zM541 793q100 -8 207 -13v381h-5 q-70 -27 -124 -127t-78 -241zM559 360q18 -77 55 -143q55 -133 134 -133v264q-96 4 -189 12zM825 84q111 0 191 276q-95 -9 -191 -12v-264zM825 420q104 2 207 18q12 66 12 180q0 68 -2 103q-104 -10 -217 -12v-289zM825 780q102 2 209 13q-42 238 -155 340q-42 28 -53 28 h-1v-381zM983 1126q88 -115 121 -325q137 24 172 51q-92 203 -293 274zM993 125q110 47 176 117q80 74 123 190q-76 -35 -198 -61q-37 -158 -101 -246zM1108 453q147 25 184 60.5t37 111.5q0 82 -24 155q-95 -39 -191 -49q4 -39 4 -113q0 -80 -10 -165z" />
<glyph unicode="x" horiz-adv-x="1574" d="M123 625q0 274 194.5 467.5t471 193.5t470 -192.5t193.5 -468.5q0 -279 -192.5 -472.5t-471.5 -193.5q-276 0 -470.5 193.5t-194.5 472.5zM444 420l138 -139l206 206l203 -204l139 137l-204 205l204 204l-139 138l-203 -205l-206 207l-138 -140l207 -204z" />
<glyph unicode="y" horiz-adv-x="1456" d="M82 753q0 205 143 349q145 143 350 143t351 -143q133 -133 137 -336v-13q0 -194 -115 -321l189 -65l211 -213q25 -30 25 -70q0 -6 -1 -12q-4 -47 -36.5 -80t-77.5 -36h-10q-40 0 -72 24l-213 213l-66 184q-128 -112 -319 -112h-16q-202 5 -337 138q-143 145 -143 350z M211 753q0 -151 106 -257q109 -106 259 -106q0 -1 1 -1q148 0 255 107q106 106 106 256.5t-107 257.5q-106 109 -254 109q-1 0 -1 -1q-150 0 -259 -108q-106 -106 -106 -257zM356 705v104h164v166h111v-166h162v-104h-162v-164h-111v164h-164z" />
<glyph unicode="z" horiz-adv-x="1456" d="M82 753q0 205 145.5 348.5t350 143.5t348.5 -143q133 -133 137 -336q0 -7 1 -13q0 -194 -114 -321l187 -65l211 -213q25 -30 25 -70q-1 -6 -1 -12q-4 -47 -36 -80t-78 -36h-10q-40 0 -72 24l-213 213l-66 184q-128 -112 -319 -112h-16q-202 5 -335 138q-145 145 -145 350 zM211 753q0 -151 106 -257q109 -106 259.5 -106t254.5 106q107 107 107 258q0 150 -107 256q-104 109 -253 109l-2 -1q-150 0 -259 -108q-106 -106 -106 -257zM356 680v156h437v-156h-437z" />
<glyph unicode="{" horiz-adv-x="1576" d="M123 621q0 276 194.5 470.5t470.5 194.5q274 0 470 -194.5t196 -470.5q0 -274 -195.5 -470t-470.5 -196q-276 0 -470.5 195.5t-194.5 470.5zM268 623q0 -215 152.5 -368t368 -153t367 153t151.5 368t-151.5 366.5t-367 151.5t-368 -151.5t-152.5 -366.5zM356 624.5 q0 14.5 12.5 27t27 12.5t26.5 -12.5t12 -27t-12 -26.5t-26.5 -12t-27 12t-12.5 26.5zM479 338q0 14 12.5 26.5t26.5 12.5t26.5 -12.5t12.5 -26.5t-12.5 -26.5t-26.5 -12.5t-26.5 12.5t-12.5 26.5zM487 821l236 -256q18 -25 53 -24h209q43 0 62.5 36.5t2 73.5t-64.5 37h-178 l-213 234q-49 49 -101.5 -0.5t-5.5 -100.5zM745 231.5q0 14.5 12.5 26.5t27 12t26.5 -12t12 -26.5t-12 -26.5t-26.5 -12t-27 12t-12.5 26.5zM748 1011.5q0 16.5 11 28t27.5 11.5t27.5 -11.5t11 -28t-11 -27.5t-27.5 -11t-27.5 11t-11 27.5zM1020 905.5q0 16.5 12 27.5 t26.5 11t27 -11t12.5 -27.5t-12.5 -28t-27 -11.5t-26.5 11.5t-12 28zM1032 350.5q0 14.5 12.5 26.5t26.5 12t26.5 -12t12.5 -26.5t-12.5 -27t-26.5 -12.5t-26.5 12.5t-12.5 27zM1141 624.5q0 14.5 11 27t27.5 12.5t28 -12.5t11.5 -27t-11.5 -26.5t-28 -12t-27.5 12t-11 26.5 z" />
<glyph unicode="|" horiz-adv-x="485" d="M205 -508v2050h76v-2050h-76z" />
<glyph unicode="}" horiz-adv-x="1576" d="M123 621q0 276 194.5 470.5t470.5 194.5q274 0 470 -194.5t196 -470.5q0 -274 -195.5 -470t-470.5 -196q-276 0 -470.5 195.5t-194.5 470.5zM268 623q0 -215 152.5 -368t368 -153t367 153t151.5 368t-151.5 366.5t-367 151.5t-368 -151.5t-152.5 -366.5zM508 801 l215 -236q18 -25 53 -24h189q43 0 62.5 36.5t2 73.5t-64.5 37h-158l-193 213q-49 49 -101 0t-5 -100z" />
<glyph unicode="&#xad;" d="M113 123l440 774l444 -774h-884z" />
<glyph unicode="&#x2000;" horiz-adv-x="816" />
<glyph unicode="&#x2001;" horiz-adv-x="1632" />
<glyph unicode="&#x2002;" horiz-adv-x="816" />
<glyph unicode="&#x2003;" horiz-adv-x="1632" />
<glyph unicode="&#x2004;" horiz-adv-x="544" />
<glyph unicode="&#x2005;" horiz-adv-x="408" />
<glyph unicode="&#x2006;" horiz-adv-x="272" />
<glyph unicode="&#x2007;" horiz-adv-x="272" />
<glyph unicode="&#x2008;" horiz-adv-x="204" />
<glyph unicode="&#x2009;" horiz-adv-x="326" />
<glyph unicode="&#x200a;" horiz-adv-x="90" />
<glyph unicode="&#x2010;" d="M113 123l440 774l444 -774h-884z" />
<glyph unicode="&#x2011;" d="M113 123l440 774l444 -774h-884z" />
<glyph unicode="&#x2012;" d="M113 123l440 774l444 -774h-884z" />
<glyph unicode="&#x2013;" horiz-adv-x="1024" d="M113 123v774h786v-774h-786z" />
<glyph unicode="&#x2014;" horiz-adv-x="2048" d="M113 123v774h1810v-774h-1810z" />
<glyph unicode="&#x2018;" horiz-adv-x="1024" />
<glyph unicode="&#x2019;" horiz-adv-x="1568" d="M164 362v515l362 364h514l365 -364v-515l-365 -362h-514zM219 385l330 -330h469l332 330v469l-332 332h-469l-330 -332v-469zM289 414v411l291 291h409l291 -291v-411l-291 -289h-409z" />
<glyph unicode="&#x2026;" horiz-adv-x="4698" d="M3189 1122q0 31 16.5 48.5t31.5 19.5l16 2h4q4 0 11 1t16 1q203 0 260 -168l886 -63q35 -2 57.5 -26t22.5 -56v-461q0 -35 -24.5 -59.5t-59.5 -24.5h-782q-29 0 -52.5 20.5t-27.5 49.5l-145 520q-25 94 -68 106q-16 4 -67.5 6t-73 18.5t-21.5 65.5zM3503 102.5 q0 -57.5 40 -97.5t97 -40t97 40t40 97.5t-40 97.5t-97 40t-97 -40t-40 -97.5zM3578 874l62 -186h201v170zM3656 641l49 -158h136v158h-185zM3906 483h205v158h-205v-158zM3906 688h205v152l-205 14v-166zM4168 102.5q0 -57.5 40 -97.5t95 -40q57 0 97.5 40t40.5 97 q-2 57 -41 97.5t-97 40.5q-55 0 -95 -40t-40 -97.5zM4176 483h187v158h-187v-158zM4176 688h187v133l-187 15v-148zM1623 1122q0 31 16.5 48.5t31.5 19.5l16 2h4q4 0 11 1t16 1q203 0 260 -168l886 -63q35 -2 57.5 -26t22.5 -56v-461q0 -35 -24.5 -59.5t-59.5 -24.5h-782 q-29 0 -52.5 20.5t-27.5 49.5l-145 520q-25 94 -68 106q-16 4 -67.5 6t-73 18.5t-21.5 65.5zM1937 102.5q0 -57.5 40 -97.5t97 -40t97 40t40 97.5t-40 97.5t-97 40t-97 -40t-40 -97.5zM2012 874l62 -186h201v170zM2090 641l49 -158h136v158h-185zM2340 483h205v158h-205 v-158zM2340 688h205v152l-205 14v-166zM2602 102.5q0 -57.5 40 -97.5t95 -40q57 0 97.5 40t40.5 97q-2 57 -41 97.5t-97 40.5q-55 0 -95 -40t-40 -97.5zM2610 483h187v158h-187v-158zM2610 688h187v133l-187 15v-148zM57 1122q0 31 16.5 48.5t31.5 19.5l16 2h4q4 0 11 1 t16 1q203 0 260 -168l886 -63q35 -2 57.5 -26t22.5 -56v-461q0 -35 -24.5 -59.5t-59.5 -24.5h-782q-29 0 -52.5 20.5t-27.5 49.5l-145 520q-25 94 -68 106q-16 4 -67.5 6t-73 18.5t-21.5 65.5zM371 102.5q0 -57.5 40 -97.5t97 -40t97 40t40 97.5t-40 97.5t-97 40t-97 -40 t-40 -97.5zM446 874l62 -186h201v170zM524 641l49 -158h136v158h-185zM774 483h205v158h-205v-158zM774 688h205v152l-205 14v-166zM1036 102.5q0 -57.5 40 -97.5t95 -40q57 0 97.5 40t40.5 97q-2 57 -41 97.5t-97 40.5q-55 0 -95 -40t-40 -97.5zM1044 483h187v158h-187 v-158zM1044 688h187v133l-187 15v-148z" />
<glyph unicode="&#x202f;" horiz-adv-x="326" />
<glyph unicode="&#x205f;" horiz-adv-x="408" />
<glyph unicode="&#x2122;" horiz-adv-x="2305" d="M1282 123v1108q0 51 35.5 87t87.5 36h573q51 0 87 -36t36 -87v-1108q0 -51 -36 -87t-87 -36h-573q-51 0 -87 36t-36 87zM1409 813h565v397h-565v-397zM1431 419.5q0 -106.5 77 -183t183.5 -76.5t183 75.5t76.5 184t-76.5 184.5t-183 76t-183.5 -77t-77 -183.5zM1593 420 q0 41 28.5 69.5t69.5 28.5t70 -28.5t29 -69.5t-29 -69.5t-70 -28.5t-69.5 28.5t-28.5 69.5zM188 469v571q0 53 38 91t93 38q53 0 91.5 -37.5t38.5 -91.5v-190h333q55 0 93 -38t38 -93q0 -53 -37.5 -91t-93.5 -38h-333v-121q0 -86 60.5 -144.5t154.5 -64.5h118q55 0 93 -38 t38 -91q0 -55 -37.5 -93t-93.5 -38h-127h-2q-197 10 -325 139q-139 129 -140 330z" />
<glyph unicode="&#xe000;" horiz-adv-x="1285" d="M0 1285h1285v-1285h-1285v1285z" />
</font>
</defs>
</svg>
